10 0 0

鬼吹灯有声书周建龙版 1和2部8本完整合集 (重新整理全网版本进行重编码、编辑Tag、内嵌封面)

资源站巡查员
7月前 1866


周建龙的鬼吹灯,个人的感觉就像大法在电视机界的地位。07年是在《一路听天下》这个车载媒体里面听到的,那是有生第一次听到如此叫人入魂的演播,记得有两次听的入迷,都开过了单位。

周建龙版也是鬼吹灯官方唯一授权的播讲,但周建龙只播讲了第一部《精绝古城》,后来的几部听过其他人的版本,差得很远,这么多年下来鬼吹灯全集虽看的差不多了,但一直想听周建龙播讲后面几本,直到前两天竟然发现他已经讲完了天下霸唱的全8本原著!(据了解,后续还有4本,不过不是天下霸唱写的,风评较差,虽然周建龙也播了,但那是版权方商业行为,真正值得听的,只有这8本。)

这两天下了不少版本,PT站全网的几个版本下载后发现都有问题,7.54G 和 6.73G 的后4部扩展名为 mp3,但编码实则为 aac,导致 foobar2000 无法正常播放,猫站有一个 13.41G 的版本,前4部单集4-5M,后4部单集 50M+,码率偏差过大。至于公网资源,更是杂乱,就自己着手整理了一版分享给大家。

考虑到周建龙此8本有声书制作精良,都带有背景音,在保证听感基本不损失的前提下,做如下调整:

  1. 前4部采用全网码率最高的 CBR 128k mp3 版本,后4部用单集 50M 的 CBR 320k 作为源,用 -ap standard 压成 VBR mp3,码率约 192k。调整后前4部平均 20M,后4部平均 28M。
  2.  重新调整了所有内嵌 Tag。
  3. 将部分文件内嵌标签为apev2的,统一调整为 id3v2,并且重新内嵌 128k 大小封面图。

作品名称:《鬼吹灯》有声书
文学体裁:小说
小说作者:天下霸唱
播  讲:周建龙
全册章数:二百三十九章
字  数:约200万

作品简介:

鬼吹灯是一个系列形式的文字冒险故事,以一本家传的秘书残卷为引。

小说中作者首创历史上四大盗墓门派——摸金、卸岭、发丘、搬山,其中摸金是技术含量最高,规矩最多的门派。

“人点烛,鬼吹灯”是传说中摸金派的不传之秘,意为进入古墓之中先在东南角点燃一支蜡烛才能开棺,如果蜡烛熄灭,须速速退出,不可取一物。

相传这是祖师爷所定的一条活人与死人的契约,千年传承,不得破。

有谚为证:发丘印,摸金符,搬山卸岭寻龙诀;人点烛,鬼吹灯,勘舆倒斗觅星峰;水银斑,养明器,龙楼宝殿去无数;窨沉棺,青铜椁,八字不硬莫近前。竖葬坑,匣子坟,搬山卸岭绕着走;赤衣凶,笑面尸,鬼笑莫如听鬼哭。


Info

前4部

General
Filename                                 : 01. 精绝古城 01.mp3
Format                                   : MPEG Audio
File size                                : 19.8 MiB
Duration                                 : 21 min 15 s
Overall bit rate mode                    : Constant
Overall bit rate                         : 128 kb/s
Album                                    : 鬼吹灯I-1-精绝古城
Track name                               : 精绝古城 01
Track name/Position                      : 1
Track name/Total                         : 50
Performer                                : 周建龙
Cover                                    : Yes
Cover type                               : Cover (front)
Cover MIME                               : image/jpeg

Audio
Format                                   : MPEG Audio
Format version                           : Version 1
Format profile                           : Layer 3
Format settings                          : Joint stereo / MS Stereo
Duration                                 : 21 min 15 s
Bit rate mode                            : Constant
Bit rate                                 : 128 kb/s
Channel(s)                               : 2 channels
Sampling rate                            : 44.1 kHz
Frame rate                               : 38.281 FPS (1152 SPF)
Compression mode                         : Lossy
Stream size                              : 19.5 MiB (98%)

后4部

General
Filename                                 :  01. 黄皮子坟 01.mp3
Format                                   : MPEG Audio
File size                                : 26.9 MiB
Duration                                 : 20 min 0 s
Overall bit rate mode                    : Variable
Overall bit rate                         : 187 kb/s
Album                                    : 鬼吹灯II-1-黄皮子坟
Track name                               : 黄皮子坟 01
Track name/Position                      : 1
Performer                                : 周建龙
Writing library                          : LAME3.100
Cover                                    : Yes
Cover type                               : Cover (front)
Cover MIME                               : image/jpeg
TOTALTRACKS                              : 57

Audio
Format                                   : MPEG Audio
Format version                           : Version 1
Format profile                           : Layer 3
Format settings                          : Joint stereo
Duration                                 : 20 min 0 s
Bit rate mode                            : Variable
Bit rate                                 : 187 kb/s
Minimum bit rate                         : 32.0 kb/s
Channel(s)                               : 2 channels
Sampling rate                            : 44.1 kHz
Frame rate                               : 38.281 FPS (1152 SPF)
Compression mode                         : Lossy
Stream size                              : 26.8 MiB (100%)
Writing library                          : LAME3.100
Encoding settings                        : -m j -V 2 -q 0 -lowpass 18.5 --vbr-new -b 32

 

ScreenShots

前4部频谱

image

后4部频谱对比(上:原 CBR 320k,下:现 VBR ~192k)

image
image

其他

image
image
image
image
image
image
image
image
image

夸克网盘---点击打开链接,手机端新注册用户送1T空间

请先登录后发表评论!

最新回复 (10)
  • eplay6 20天前
    0 引用 11

    楼主太给力了,这个资源找了很久

  • lq1981728 20天前
    0 引用 10

    不错的帖子!

  • 文希 20天前
    0 引用 9

    楼主太给力了,这个资源找了很久

  • qq6222222222 1月前
    0 引用 8

    这个资源我很需要,谢谢盘主

  • zlshixiaobai 2月前
    0 引用 7

    这个有点厉害啊

  • robustivan 2月前
    0 引用 6

    这个资源我很需要,谢谢盘主

  • 文希 3月前
    0 引用 5

    这个资源我很需要,谢谢盘主

  • hym 3月前
    0 引用 4

    祝网盘资源避难所越办越好!!!

  • 三十 6月前
    0 引用 3

    感谢楼主分享

  • xialuoke3 6月前
    0 引用 2

    这个资源我很需要,谢谢盘主

返回
请先登录后发表评论!